#TITLE:Scars Left By Time;
#SUBTITLE:Chrono Cross;
#ARTIST:光田康典;
#TITLETRANSLIT:;
#SUBTITLETRANSLIT:;
#ARTISTTRANSLIT:Yasunori Mitsuda;
#CREDIT:John Bernhard;
#BANNER:Scars of Time.jpg;
#BACKGROUND:Scars of Time-bg.jpg;
#LYRICSPATH:;
#CDTITLE:!john-cdtitle.png;
#MUSIC:Scars of Time.mp3;
#OFFSET:10.030;
#SAMPLESTART:126.840;
#SAMPLELENGTH:16.620;
#SELECTABLE:YES;
#BPMS:0.000=79.700,30.000=78.200,30.500=77.480,31.000=77.600,31.500=71.640,34.000=79.940,89.000=77.561,90.000=223.841,282.000=111.921,314.000=223.841,367.000=215.661,368.000=206.961;
#STOPS:33.000=0.380
;
#BGCHANGES:0.000=Intro.avi=1.000=0=0=1,
99999=-nosongbg-=1.000=0=0=0 // don't automatically add -songbackground-
;
// cache tags:
#FIRSTBEAT:18.000;
#LASTBEAT:370.500;
#SONGFILENAME:Songs/Music V.I.P ^_^/Scars of Time (John11)/Scars of Time.sm;
#HASMUSIC:1;
#HASBANNER:1;
#MUSICLENGTH:149.890;
// end cache tags

//---------------dance-single - New steps1----------------
#NOTES:
     dance-single:
     New steps1:
     Medium:
     9:
     0.591,1.000,0.060,1.000,0.113,401.000,9.000,210.000,0.000,16.000:











0000
0000
0000
0000
,
0000
0000
0000
0000
,
0000
0000
0000
0000
,
0000
0000
0000
0000
,
0000
0000
0000
0000
2000
3200
1320
0032
,
0203
0302
2003
3200
2300
3200
0320
0032
,
0203
0302
2003
3200
2300
3200
1320
0032
,
0203
2302
0203
0320
0230
0320
0032
3203
,
1300
0000
0001
0000
0000
0000
0000
0000
0000
0000
0000
0000
0000
0000
0000
0000
0000
0000
0000
0000
0000
0000
0000
0000
0000
0000
0000
0000
0000
0000
0000
0000
0000
0000
0000
0000
0000
0000
0000
0000
0000
0000
0000
0000
0000
0000
0000
0000
0000
0000
0000
0000
0000
0000
0000
0000
0000
0000
0000
0000
0000
0000
0000
0000
0000
0000
0000
0000
0000
0000
0000
0000
0000
0000
0000
0000
0000
0000
0000
0000
0000
0000
0000
0000
0000
0000
0000
0000
0000
0000
0000
0000
0000
0000
0000
0000
2000
0000
0000
0000
0000
0000
0000
0000
0000
0000
0000
0000
0000
0000
0000
0000
0000
0000
0000
0000
0000
0000
0000
0000
0000
0000
0000
0000
0000
0000
0000
0000
0000
0000
0000
0000
0000
0000
0000
0000
0000
0000
0000
0000
0000
0000
0000
0000
3002
0000
0000
0000
0000
0000
0000
0000
0000
0000
0000
0000
0000
0000
0000
0000
0000
0000
0000
0000
0000
0000
0000
0000
0000
0000
0000
0000
0000
0000
0000
0000
0000
0000
0000
0000
0000
0000
0000
0000
0000
0000
0000
0000
0003
0000
0000
0000
,
0002
0000
0023
0230
2300
3200
0320
0000
,
0000
0000
0000
0000
0000
0000
0000
0000
0000
0000
0000
0000
0000
0000
0000
0000
0000
0000
0000
0000
0000
0000
0000
0000
0000
0000
0000
0000
0000
0000
0000
0000
0030
0000
0000
0000
0002
0000
0000
0000
0000
0000
0000
0000
0000
0023
0000
0000
0230
0000
0000
0000
0000
0000
0000
0000
0000
0000
0000
0000
0000
0000
0000
0000
0000
0000
0000
0000
0000
0000
0000
0000
2300
0000
0000
0000
0000
0000
0000
0000
0000
0000
0000
0000
0000
0000
0000
0000
0000
0000
0000
0000
3000
0000
0000
0000
2000
0000
0000
0000
0000
0000
0000
0000
0000
0000
0000
0000
0000
0000
0000
0000
0000
0000
0000
0000
0000
0000
0000
0000
0000
0000
0000
0000
0000
0000
0000
0000
3000
0000
0000
0000
0200
0000
0000
0000
0000
0000
2300
0000
0000
0000
0000
0000
3002
0000
0000
0000
0000
0000
0000
0000
0000
0000
0000
0000
0000
0000
0000
0000
0000
0000
0000
0000
0000
0000
0000
0000
0000
0000
0000
0000
0000
0000
0000
0000
0000
0000
0000
0000
0000
0000
0000
0000
0000
0000
0000
0000
0000
0000
0000
0000
,
0000
0000
0000
0000
,
0000
0000
0000
0000
0000
0000
0000
0000
0000
0000
0000
0000
0000
0000
0000
0000
0000
0000
0000
0000
0003
0000
0000
0000
2000
0000
0000
0000
0000
0000
0000
0000
0000
0000
0000
0000
3002
0000
0000
0000
0000
0000
0000
0000
0000
0000
0000
0003
,
0002
0000
0000
0000
0000
0000
0000
0000
0000
0000
0000
0003
0002
0000
0000
0000
0000
0000
2003
0000
0000
0000
0000
0000
3200
0000
0000
0000
0000
0000
0320
0000
0000
0000
0030
0002
0023
0230
0000
0000
0000
0000
2300
0000
0000
0000
0000
0000
,
3002
0000
0000
0000
0000
0000
0000
0000
0000
0000
0000
0000
0023
0000
0000
0000
0000
0000
0230
0000
0000
0000
0000
0000
0320
0000
0000
0000
0000
0000
0032
0000
0000
0000
0000
0020
0233
0320
0000
0000
0000
0000
0000
0000
0000
0000
0000
0000
,
0000
0000
0000
0030
,
0020
0000
0032
0000
0203
2300
3200
0000
,
0000
0000
0000
0000
0000
0000
0000
0000
0000
0000
0000
0000
0000
0000
0000
0000
0000
0000
0000
0300
0000
0000
0000
0000
,
0200
0000
0320
0000
0032
0000
0000
0203
,
0320
0000
0000
0000
0000
0000
0000
0000
0000
0000
0000
0000
0230
0000
0000
0000
0000
0000
0000
0000
0000
2300
3200
2300
,
3002
0000
0000
0000
0000
0000
0000
0000
0000
0000
0000
0000
0000
0000
0000
0000
0000
0000
0203
0000
0000
0000
0000
0000
0302
0000
0000
0000
0000
0000
0000
0000
0000
0000
0000
0000
0000
0000
0000
0000
0000
0003
0002
0000
2003
0000
3002
0000
,
0023
0000
0000
0230
0000
0000
2300
0000
3002
0000
0000
0000
0000
0000
0000
0000
,
0000
0000
0000
0000
0003
0000
0000
0000
0000
0000
0000
0000
0000
0000
0000
0000
0002
0000
2003
0000
0000
0000
0000
0000
0000
3020
0000
0000
0000
0000
0000
0000
0230
0000
0000
0000
0000
0000
0000
0000
0000
0000
0000
0000
0000
0000
0000
0000
0000
0000
0000
0000
0000
0000
0000
0000
0000
0000
0000
0000
0000
0000
0000
0000
,
0000
0000
0000
0000
,
0000
0000
0000
0000
,
0000
0000
0000
0000
,
0000
0000
0000
0000
,
0000
0000
0000
0000
0000
0300
0000
0000
,
0000
0000
0000
0000
,
0000
0000
0000
0000
,
0000
0000
0000
0000
1000
0100
0010
0001
,
1000
0100
0010
0001
1000
0010
0100
0001
,
1000
0010
0100
0001
0010
0100
1000
0010
,
0100
0001
0010
0100
1000
0100
1000
0010
,
1000
0010
1000
0001
0001
0010
0100
1000
,
0001
0010
0100
1000
0001
0100
0010
1000
,
0001
0100
0010
1000
0100
0010
0001
0100
,
0010
0000
0000
1000
0000
0000
1000
0100
0010
0001
0000
0000
1000
0000
0000
1000
0000
0000
0000
0000
0000
1000
0000
0000
,
1000
0200
0302
0100
,
0100
2003
3020
0100
,
0100
0000
0000
0100
0000
0000
0100
0000
0000
0230
0320
0230
,
2300
3200
2300
3020
,
0032
0203
0302
0100
,
0100
2003
3020
0100
,
0100
0000
0000
0230
0320
0230
2300
0000
0000
3200
0000
0000
,
0302
0000
0100
0100
0100
0100
0000
0100
,
0103
0002
0023
0100
,
0100
0230
2300
0100
,
0100
0000
0000
0100
0000
0000
0100
0000
0000
3002
2003
3002
,
0203
0302
0203
2300
,
3020
0032
0023
0100
,
0100
0230
2300
0100
,
0100
0000
0000
3002
2003
3002
0203
0000
0000
0302
0000
0000
,
0023
0000
0100
0100
0100
0100
0000
0100
,
0130
0020
0032
0010
,
0100
1000
0010
0100
,
1000
0000
0023
0230
2300
0000
0100
0000
,
0010
0001
3002
1000
,
0100
0010
0023
1000
,
0100
1000
0100
1000
,
0100
0000
0230
0320
0032
0000
0010
0000
,
0100
1000
0023
0100
,
1000
0100
0032
1000
,
0100
0010
0100
1000
,
0100
0000
0023
0230
2300
0000
0001
0000
,
0100
0001
3002
1000
,
0010
1000
0023
0100
,
1000
0000
0230
0320
0032
0000
0100
0000
,
1000
0000
0023
0000
0032
0023
0230
0000
,
0001
0010
0001
0010
,
0001
0000
0010
0300
0002
0000
0000
0000
,
0000
0000
0000
0000
0000
0000
0023
0230
2300
0000
0000
0000
0000
0000
0000
0000
,
3002
0000
0023
0000
,
0000
0000
0000
0000
0000
0000
0230
0320
0032
0000
0000
0000
0000
0000
0000
0000
,
0023
0000
0032
0000
,
0000
0000
0000
0000
0000
0000
0023
0230
2300
0000
0000
0000
0000
0000
0000
0000
,
3002
0000
0000
0000
0000
0000
0000
0000
0023
0000
0000
0000
0000
0000
0032
2003
,
3020
0000
0000
0000
0000
0000
0230
0000
0320
0230
2300
0000
0000
0000
0000
0000
,
0000
0000
0000
0000
3002
0000
1000
0100
,
0010
0000
1000
0100
0010
0000
1000
0100
,
0010
0000
0023
0230
2300
0000
0001
0010
,
0100
0000
0001
0010
3102
0000
0000
0000
,
0000
0000
0000
0000
2003
0000
0001
0010
,
0001
0000
0100
0010
0100
0000
0001
0100
,
0001
0000
3200
0320
0032
0000
0010
0100
,
1000
0000
0010
0100
0123
0100
0000
0100
,
0100
0000
0000
0000
0032
0000
1000
1000
,
1000
0000
0010
0010
0010
0000
0100
0100
,
0123
0000
0000
0000
0000
0000
0000
0000
0000
0000
0000
0000
0000
0000
0000
0000
0000
0000
0000
0000
0000
0000
0000
0000
2030
0000
0000
0000
0000
0000
0000
0000
3020
0000
0000
0000
0000
0000
0000
0000
0230
0000
0000
0000
0000
0000
0000
0000
0320
0000
0000
0000
0000
0000
0000
0000
0000
0000
0000
0000
0000
0000
0000
0000
0000
0000
0000
0000
0000
0000
0000
0000
0230
0000
0000
0000
0000
0000
0000
0000
0000
0000
0000
0000
0000
0000
0000
0000
0000
0000
0000
0000
0000
0000
0000
0000
0300
2000
0000
0000
0000
0000
0000
0000
0000
0000
0000
0000
0000
0000
0000
0000
0000
0000
0000
0000
0000
0000
0000
0000
0000
0000
0000
0000
0000
0000
0000
0000
0000
0000
0000
0000
0000
0000
0000
0000
0000
0000
0000
0000
0000
0000
0000
0000
0000
0000
0000
0000
0000
0000
0000
0000
0000
0000
0000
0000
0000
0000
0000
0000
0000
0000
0000
0000
0000
0000
0000
0000
0000
0000
0000
0000
0000
0000
0000
0000
0000
0000
0000
0000
0000
0000
0000
0000
0000
0000
0000
0000
0000
0000
0000
0000
,
0000
0000
0000
0000
3002
1000
1000
0100
,
0100
0010
0010
0100
0123
0000
0000
0000
,
0000
0000
0230
0320
0132
0100
0100
0100
,
0100
0100
0203
0320
2032
3003
0000
0000
;

//---------------dance-single - HARD----------------
#NOTES:
     dance-single:
     HARD:
     Hard:
     11:
     0.947,1.000,1.000,0.887,0.173,670.000,191.000,133.000,0.000,67.000:

0000
0000
0000
0000
,
0000
0000
0000
0000
,
0000
0000
0000
0000
,
0000
0000
0000
0000
,
0000
0000
0000
0000
2000
3200
1320
0032
,
0203
0302
2003
3200
2300
3200
0320
0032
,
0203
0302
2003
3200
2300
3200
1320
0032
,
0203
2302
0203
0320
0230
0320
0032
3203
,
1300
0000
0001
0000
0000
0000
0000
0000
0000
0000
0000
0000
0000
0000
0000
0000
0000
0000
0000
0000
0000
0000
0000
0000
0000
0000
0000
0000
0000
0000
0000
0000
0000
0000
0000
0000
0000
0000
0000
0000
0000
0000
0000
0000
0000
0000
0000
0000
0000
0000
0000
0000
0000
0000
0000
0000
0000
0000
0000
0000
0000
0000
0000
0000
0000
0000
0000
0000
0000
0000
0000
0000
0000
0000
0000
0000
0000
0000
0000
0000
0000
0000
0000
0000
0000
0000
0000
0000
0000
0000
0000
0000
0000
0000
0000
0000
2100
0000
0000
0000
0000
0000
0000
0000
0000
0000
0000
0000
0000
0000
0000
0000
0000
0000
0000
0000
0000
0000
0000
0000
0010
0000
0000
0000
0000
0000
0000
0000
0000
0000
0000
0000
0000
0000
0000
0000
0000
0000
0000
0000
0000
0000
0000
0000
3102
0000
0000
0000
0000
0000
0000
0000
0000
0000
0000
0000
0000
0000
0000
0000
0000
0000
0000
0000
0000
0000
0000
0000
1000
0000
0000
0000
0000
0000
0000
0000
0000
0000
0000
0000
0000
0000
0000
0000
0000
0000
0000
0000
0003
0000
0000
0000
,
0102
0010
0123
0231
2301
3201
1320
0100
,
0100
0000
0000
0000
0000
0000
0000
0000
0000
0000
0000
0000
0000
0000
0000
0000
0000
0000
0000
0000
0000
0000
0000
0000
1000
0000
0000
0000
0000
0000
0000
0000
0030
0000
0000
0000
0002
0000
0000
0000
0000
0000
0000
0000
0000
0023
0000
0000
1230
0000
0000
0000
0000
0000
0000
0000
0000
0000
0000
0000
0000
0000
0000
0000
0000
0000
0000
0000
0000
0000
0000
0000
2310
0000
0000
0000
0000
0000
0000
0000
0000
0000
0000
0000
0000
0000
0000
0000
0000
0000
0000
0000
3000
0000
0000
0000
2001
0000
0000
0000
0000
0000
0000
0000
0000
0000
0000
0000
0000
0000
0000
0000
0000
0000
0000
0000
0000
0000
0000
0000
0010
0000
0000
0000
0000
0000
0000
0000
3000
0000
0000
0000
0200
0000
0000
0000
0000
0000
2300
0000
0000
0000
0000
0000
3102
0000
0000
0000
0000
0000
0000
0000
0000
0000
0000
0000
0000
0000
0000
0000
0000
0000
0000
0000
0000
0000
0000
0000
0010
0000
0000
0000
0000
0000
0000
0000
0000
0000
0000
0000
0000
0000
0000
0000
0000
0000
0000
0000
0000
0000
0000
0000
,
1000
0100
0010
0100
1000
0100
0010
1000
,
0100
0000
0000
0000
0000
0000
1000
0000
0000
0000
0000
0000
0010
0000
0000
0000
0000
0000
0000
0000
0003
0000
0000
0000
2100
0000
0000
0000
0000
0000
0010
0000
0000
0000
0000
0000
3102
0000
0000
0000
0000
0000
0010
0000
0000
0000
0000
0003
,
0102
0000
0000
0000
0000
0000
1000
0000
0000
0000
0000
0003
0102
0000
0000
0000
0000
0000
2013
0000
0000
0000
0000
0000
3210
0000
0000
0000
0000
0000
0321
0000
0000
0000
0030
0002
0023
0230
0000
0000
0000
0000
2310
0000
0000
0000
0000
0000
,
3012
0000
0000
0100
0000
0000
1000
0000
0000
0000
0000
0000
0123
0000
0000
0000
0000
0000
0231
0000
0000
0000
0000
0000
1320
0000
0000
0000
0000
0000
0132
0000
0000
0000
0000
0020
0233
0320
0000
0000
0000
0000
0100
0000
0000
0000
0000
0000
,
0001
1000
0001
1000
0100
0001
0130
0010
,
1020
0001
1032
0000
1203
2310
3201
1000
,
0010
0000
0000
1000
0000
0000
0010
0000
0000
0001
0000
0000
1000
0000
0000
0010
0000
0000
0001
0300
0000
1000
0000
0000
,
0201
0000
0000
0000
0000
0000
0000
0000
0000
0000
0000
0000
0010
0000
0000
0000
0000
0000
0000
0000
0000
0000
0000
0000
1000
0000
0000
0000
0000
0000
0000
0000
0000
0000
0000
0000
0000
0000
0000
0000
0000
0000
0000
0000
0000
0000
0000
0000
0321
0000
0000
0000
0000
0000
0000
0000
0000
0000
0000
0000
0000
0000
0000
0000
0000
0000
0000
0000
0000
0000
0000
0000
1000
0000
0000
0000
0000
0000
0000
0000
0000
0000
0000
0000
0000
0000
0000
0000
0000
0000
0000
0000
0000
0000
0000
0000
1032
0000
0000
0000
0000
0000
0000
0000
0000
0000
0000
0000
0000
0000
0000
0000
0000
0000
0000
0000
0000
0000
0000
0000
0100
0000
0000
0000
0000
0000
0000
0000
0000
0000
0000
0000
0000
0000
0000
0000
0000
0000
0000
0000
0000
0000
0000
0000
0010
0000
0000
0000
0000
0000
0000
0000
0000
0000
0000
0000
0000
0000
0000
0000
0000
0000
0000
0000
0000
0000
0000
0000
2003
0000
0000
0000
0000
0000
0000
0000
0000
0000
0000
0000
0000
0000
0000
0000
0000
0000
0001
0000
3000
0100
0000
0000
,
1020
0000
0000
1000
0000
0000
0100
0000
0000
0001
0000
0000
1230
0000
0000
0010
0000
0000
1000
0000
0000
2301
3200
2300
,
3012
0000
0000
0000
0000
0000
0100
0000
0000
0000
0000
0000
0010
0000
0000
0000
0000
0000
1203
0000
0000
0000
0000
0000
0312
0000
0000
0000
0000
0000
0100
0000
0000
0000
0000
0000
0010
0000
0000
0000
0000
0003
0102
0000
2003
0000
3002
0000
,
1023
0000
0001
0230
0001
0000
2310
0000
3022
0000
0230
0000
0320
0000
0000
0000
,
0030
0000
0000
0000
0003
0000
0000
0000
1000
0000
0000
0000
0000
0000
0000
0000
0002
0000
2003
0000
0000
0000
0000
0000
0000
3020
0000
0000
0000
0000
0000
0000
1130
0000
0000
0000
0000
0000
0000
0000
0000
0000
0000
0000
0000
0000
0000
0000
0000
0000
0000
0000
0000
0000
0000
0000
0010
0000
0000
0000
0000
0000
0000
0000
,
0010
0000
1000
0000
1100
0000
0000
0010
,
0010
0000
1000
0000
1100
0000
0000
0010
,
0010
0000
0010
0001
0010
0001
0010
0001
,
0010
0001
0010
0000
1100
0000
0000
0010
,
0010
0000
1000
0000
1100
0000
0000
0010
,
0010
0000
1000
0000
1100
0000
0000
0010
,
0010
0000
0000
0000
0000
0000
1000
0010
0100
0001
0000
0000
0001
0000
0000
0001
0000
0000
0000
0000
0000
0001
0000
0000
,
0001
0000
0000
0000
1000
0101
0101
0101
,
0101
0101
0101
0101
1000
0011
0011
0011
,
0011
0011
0011
0011
0001
0110
0110
0110
,
0110
0110
0110
0110
1010
1001
0011
0110
,
1100
0110
0011
1001
1000
0101
0101
0101
,
0101
0101
0101
0101
1000
0011
0011
0011
,
0011
0011
0011
0011
0001
0110
0110
0110
,
0110
0000
0000
0110
0000
0000
0110
0001
1000
0010
0000
0000
0010
0000
0000
0010
0000
0000
0000
0000
0000
0010
0000
0000
,
0010
0000
0011
0000
0110
1000
0100
1000
,
0100
1000
0110
0100
1010
0100
0001
0100
,
0001
0000
0000
0100
0000
0000
0001
0000
0000
0100
0000
0000
1000
0000
0000
0001
0000
0000
1001
0000
0100
0000
0010
0000
,
1001
0001
0110
1000
1001
0010
0110
1000
,
0101
0010
1100
0010
1001
0100
1000
0100
,
1000
0100
1010
0100
0011
1000
0001
1000
,
0001
0000
0000
1000
0000
0000
0101
0000
0010
0000
0100
0000
1001
0000
0000
0010
0000
0000
0101
0000
0000
0010
0000
0000
,
1001
0000
0000
0100
0000
0000
0010
0100
1000
0010
0000
0000
0100
0000
0000
0100
0000
0000
0000
0000
0000
0100
0000
0000
,
0100
0000
0101
0000
0110
1000
0001
1000
,
0001
1000
0101
1000
1001
0010
0100
0010
,
0100
0000
0000
0010
0000
0000
0100
0000
0000
0010
0000
0000
0001
0000
0000
0100
0000
0000
0011
0000
1000
0000
0001
0000
,
0110
1000
0011
0100
1100
0001
1010
0001
,
0110
1000
0101
1000
0110
0001
0100
0001
,
0100
0001
1100
0001
1010
0001
0010
0001
,
0010
0000
0000
0001
0000
0000
0011
0000
1000
0000
0001
0000
0110
0000
0000
1000
0000
0000
0011
0000
0000
0100
0000
0000
,
1010
0000
0000
0001
0000
0000
1000
0100
0010
0001
0000
0000
0100
0000
0000
0100
0000
0000
0000
0000
0000
0100
0000
0000
,
0100
0000
0110
0000
0101
1000
0010
0100
,
0010
0100
0010
1000
0100
0010
1000
0100
,
0001
0100
1010
0101
1010
0001
0100
0010
,
0001
0010
1000
0100
0011
0100
0010
1000
,
0010
0100
0010
0100
1010
1000
0001
0100
,
1000
0001
1000
0100
1000
0100
0010
0001
,
1000
0001
1100
0011
1100
0010
0100
1000
,
0010
0100
1000
0100
1010
0001
0100
0001
,
0100
0001
0100
1000
0101
0010
0100
1000
,
0100
0010
0100
1000
0100
1000
0010
0001
,
0010
0100
1010
0101
1010
0001
0010
0100
,
0010
0100
0010
0100
0011
0100
1000
0100
,
1000
0010
1000
0100
1010
0001
0100
1000
,
0001
1000
0101
1010
0101
0010
0100
1000
,
0100
1000
0110
0001
1001
0110
0101
1000
,
0010
0001
1000
0001
0010
0100
0010
1000
,
0010
0100
0010
0100
2002
0000
0000
0000
,
3200
0000
0000
0000
0300
0000
0023
0230
2302
0000
0000
0000
0000
0000
0000
0000
,
3200
0000
0000
0000
0000
0000
0000
0300
2203
0000
0000
0000
0000
0000
0320
0032
,
0203
0000
0000
0000
0000
3300
0200
0320
2032
0000
0000
0000
0000
0000
0000
0000
,
0023
0000
0000
0000
3200
0000
0000
0000
2332
0000
0000
0000
0000
0000
3020
0230
,
2300
0000
0000
0000
0000
3000
0023
0230
2302
0000
0000
0000
0000
0000
0000
0000
,
3020
0000
0000
0000
0203
0000
0000
0030
2320
0000
0000
0000
0000
0000
3032
2003
,
3020
0000
0000
0000
0000
0000
0000
0000
0000
0000
0000
0000
0230
0000
0000
0000
0320
0000
0230
0000
2301
0000
0000
0000
0001
0000
0000
0000
0001
0010
0100
0000
,
0010
0010
0000
0010
0010
0000
0000
0000
3101
0000
1000
0000
0100
0000
1000
0000
,
0100
1000
0100
1000
0100
1000
0100
1000
,
0100
1000
0110
0101
1001
0010
0100
0010
,
0100
0010
0100
0010
0101
0010
1000
0010
,
1000
0010
1000
0100
1010
0100
1000
0100
,
1000
0100
1000
0100
1000
0100
1000
0100
,
1000
0100
1100
0011
0101
0010
0100
0010
,
0100
0000
0010
0000
0100
1000
0010
0000
0101
0000
0100
0000
0000
0000
0100
0000
,
0100
0000
0000
0000
1001
0100
1000
0100
,
1000
0100
1000
0100
1000
0100
1000
0100
,
0011
0000
0000
1000
0010
0100
0010
0000
0000
0101
0000
0000
1001
0000
0000
0010
0000
0000
0100
0000
0000
0010
0000
0000
,
0100
0010
0100
0010
0101
0010
1000
0010
,
1000
0010
1000
0010
1010
0100
1000
0100
,
0001
0000
1000
0000
1100
0001
0110
0000
1001
0000
0100
1000
0010
0000
0010
0000
,
0010
0010
0110
0110
1001
0000
0000
0000
;

//---------------dance-single - CHALLENGE----------------
#NOTES:
     dance-single:
     CHALLENGE:
     Challenge:
     12:
     1.000,1.000,1.000,1.000,0.173,667.000,194.000,229.000,0.000,154.000:








0000
0000
0000
0000
,
0000
0000
0000
0000
,
0000
0000
0000
0000
,
0000
0000
0000
0000
,
0000
0000
0000
0000
2000
3200
1320
0032
,
0203
0302
2003
3200
2300
3200
0320
0032
,
0203
0302
2003
3200
2300
3200
1320
0032
,
0203
2302
0203
0320
0230
0320
0032
3203
,
1300
0000
0000
0001
0000
0000
0000
0000
0000
0000
0000
0000
0000
0000
0000
0000
0000
0000
0000
0000
0000
0000
0000
0000
0000
0000
0000
0000
0000
0000
0000
0000
0000
0000
0000
0000
0000
0000
0000
0000
0000
0000
0000
0000
0000
0000
0000
0000
0000
0000
0000
0000
0000
0000
0000
0000
0000
0000
0000
0000
0000
0000
0000
0000
0000
0000
0000
0000
0000
0000
0000
0000
0000
0000
0000
0000
0000
0000
0000
0000
0000
0000
0000
0000
0000
0000
0000
0000
0000
0000
0000
0000
0000
0000
0000
0000
2100
0000
0000
0000
0000
0000
0000
0000
0000
0000
0000
0000
0000
0000
0000
0000
0000
0000
0000
0000
0000
0000
0000
0000
0010
0000
0000
0000
0000
0000
0000
0000
0000
0000
0000
0000
0000
0000
0000
0000
0000
0000
0000
0000
0000
0000
0000
0000
3102
0000
0000
0000
0000
0000
0000
0000
0000
0000
0000
0000
0000
0000
0000
0000
0000
0000
0000
0000
0000
0000
0000
0000
1000
0000
0000
0000
0000
0000
0000
0000
0000
0000
0000
0000
0000
0000
0000
0000
0000
0000
0000
0000
0003
0000
0000
0000
,
0102
0010
0123
0231
2301
3201
1320
0100
,
0100
0000
0000
0000
0000
0000
0000
0000
0000
0000
0000
0000
0000
0000
0000
0000
0000
0000
0000
0000
0000
0000
0000
0000
1000
0000
0000
0000
0000
0000
0000
0000
0030
0000
0000
0000
0002
0000
0000
0000
0000
0000
0000
0000
0000
0023
0000
0000
1230
0000
0000
0000
0000
0000
0000
0000
0000
0000
0000
0000
0000
0000
0000
0000
0000
0000
0000
0000
0000
0000
0000
0000
2310
0000
0000
0000
0000
0000
0000
0000
0000
0000
0000
0000
0000
0000
0000
0000
0000
0000
0000
0000
3000
0000
0000
0000
2001
0000
0000
0000
0000
0000
0000
0000
0000
0000
0000
0000
0000
0000
0000
0000
0000
0000
0000
0000
0000
0000
0000
0000
0010
0000
0000
0000
0000
0000
0000
0000
3000
0000
0000
0000
0200
0000
0000
0000
0000
0000
2300
0000
0000
0000
0000
0000
3102
0000
0000
0000
0000
0000
0000
0000
0000
0000
0000
0000
0000
0000
0000
0000
0000
0000
0000
0000
0000
0000
0000
0000
0010
0000
0000
0000
0000
0000
0000
0000
0000
0000
0000
0000
0000
0000
0000
0000
0000
0000
0000
0000
0000
0000
0000
0000
,
1000
0100
0010
0100
1000
0100
0010
1000
,
0100
0000
0000
0000
0000
0000
1000
0000
0000
0000
0000
0000
0010
0000
0000
0000
0000
0000
0000
0000
0003
0000
0000
0000
2100
0000
0000
0000
0000
0000
0010
0000
0000
0000
0000
0000
3102
0000
0000
0000
0000
0000
0010
0000
0000
0000
0000
0003
,
0102
0000
0000
0000
0000
0000
1000
0000
0000
0000
0000
0003
0102
0000
0000
0000
0000
0000
2013
0000
0000
0000
0000
0000
3210
0000
0000
0000
0000
0000
0321
0000
0000
0000
0030
0002
1023
0230
0000
0000
0000
0000
2310
0000
0000
0000
0000
0000
,
3012
0000
0000
0100
0000
0000
1000
0000
0000
0000
0000
0000
0123
0000
0000
0000
0000
0000
0231
0000
0000
0000
0000
0000
1320
0000
0000
0000
0000
0000
0132
0000
0000
0000
0000
0020
1233
0320
0000
0000
0000
0000
0100
0000
0000
0000
0000
0000
,
0001
1000
0001
1000
0100
0001
0130
0010
,
1020
0001
1032
0000
1203
2310
3201
1000
,
0010
0000
0000
1000
0000
0000
0010
0000
0000
0001
0000
0000
1000
0000
0000
0010
0000
0000
0001
0300
0000
1000
0000
0000
,
0201
0000
0000
0000
0000
0000
0000
0000
0000
0000
0000
0000
0010
0000
0000
0000
0000
0000
0000
0000
0000
0000
0000
0000
1000
0000
0000
0000
0000
0000
0000
0000
0000
0000
0000
0000
0000
0000
0000
0000
0000
0000
0000
0000
0000
0000
0000
0000
0321
0000
0000
0000
0000
0000
0000
0000
0000
0000
0000
0000
0000
0000
0000
0000
0000
0000
0000
0000
0000
0000
0000
0000
1000
0000
0000
0000
0000
0000
0000
0000
0000
0000
0000
0000
0000
0000
0000
0000
0000
0000
0000
0000
0000
0000
0000
0000
1032
0000
0000
0000
0000
0000
0000
0000
0000
0000
0000
0000
0000
0000
0000
0000
0000
0000
0000
0000
0000
0000
0000
0000
0100
0000
0000
0000
0000
0000
0000
0000
0000
0000
0000
0000
0000
0000
0000
0000
0000
0000
0000
0000
0000
0000
0000
0000
0010
0000
0000
0000
0000
0000
0000
0000
0000
0000
0000
0000
0000
0000
0000
0000
0000
0000
0000
0000
0000
0000
0000
0000
2003
0000
0000
0000
0000
0000
0000
0000
0000
0000
0000
0000
0000
0000
0000
0000
0000
0000
0001
0000
3000
0100
0000
0000
,
1020
0000
0000
1000
0000
0000
0100
0000
0000
0001
0000
0000
1230
0000
0000
0010
0000
0000
1000
0000
0000
2301
3200
2300
,
3012
0000
0000
0000
0000
0000
0100
0000
0000
0000
0000
0000
0010
0000
0000
0000
0000
0000
1203
0000
0000
0000
0000
0000
0312
0000
0000
0000
0000
0000
0100
0000
0000
0000
0000
0000
0010
0000
0000
0000
0000
0003
0102
0000
2003
0000
3002
0000
,
1023
0000
0001
0230
0001
0000
2310
0000
3022
0000
0230
0000
0320
0000
0000
0000
,
0030
0000
0000
0000
0003
0000
0000
0000
1000
0000
0000
0000
0000
0000
0000
0000
0002
0000
2003
0000
0000
0000
0000
0000
0000
3020
0000
0000
0000
0000
0000
0000
1230
0000
0000
0000
0000
0000
0000
0000
0000
0000
0000
0000
0000
0000
0000
0000
0000
0000
0000
0000
0000
0000
0000
0000
0010
0000
0000
0000
0000
0000
0000
0000
,
0010
0000
1000
0000
1000
0000
0000
0010
,
0010
0000
1000
0000
1000
0000
0000
0010
,
0010
0000
0010
0001
0010
0001
0010
0001
,
0010
0001
0010
0000
1000
0000
0000
0010
,
0010
0000
1000
0000
1000
0300
0000
0010
,
0010
0000
1000
0000
1000
0000
0000
0010
,
0010
0000
0000
0000
0000
0000
1000
0010
0100
0001
0000
0000
0001
0000
0000
0001
0000
0000
0000
0000
0000
0001
0000
0000
,
0001
0000
0000
0000
1000
0101
0101
0101
,
0101
0101
0101
0101
1000
0011
0011
0011
,
0011
0011
0011
0011
0001
0110
0110
0110
,
0110
0110
0110
0110
0101
0110
0101
0110
,
1100
0110
0101
1001
1000
0101
0101
0101
,
0101
0101
0101
0101
1000
0011
0011
0011
,
0011
0011
0011
0011
0001
0110
0110
0110
,
0110
0000
0000
0110
0000
0000
0110
0001
1000
0010
0000
0000
0010
0000
0000
0010
0000
0000
0000
0000
0000
0010
0000
0000
,
0010
0000
0200
0000
0312
1000
0100
1000
,
0100
1000
2013
0100
3021
0100
0001
0100
,
0001
0000
0000
0100
0000
0000
0001
0000
0000
0100
0000
0000
1000
0000
0000
0001
0000
0000
1230
0000
0320
0001
0230
0000
,
2310
0001
3210
1000
2301
0010
3120
1000
,
0132
0010
1203
0010
1302
0100
1000
0100
,
1000
0100
2013
0100
3021
1000
0001
1000
,
0001
0000
0000
1000
0000
0000
0231
0000
0320
1000
0230
0000
2301
0000
0000
0010
0000
0000
3201
0000
0000
0010
0000
0000
,
1302
0000
0000
0100
0000
0000
0010
0100
1000
0010
0000
0000
0100
0000
0000
0100
0000
0000
0000
0000
0000
0100
0000
0000
,
0103
0000
0102
0000
0123
1000
0001
1000
,
0001
1000
0231
1000
2301
0010
0100
0010
,
0100
0000
0000
0010
0000
0000
0100
0000
0000
0010
0000
0000
0001
0000
0000
0100
0000
0000
3012
0000
2003
0100
3002
0000
,
0213
1000
0312
0100
1203
0001
2310
0001
,
3120
1000
0132
1000
0123
0001
0100
0001
,
0100
0001
1230
0001
2310
0001
0010
0001
,
0010
0000
0000
0001
0000
0000
3012
0000
2003
0100
3002
0000
0213
0000
0000
1000
0000
0000
0312
0000
0000
0100
0000
0000
,
1023
0000
0000
0001
0000
0000
1000
0100
0001
1000
0000
0000
0100
0000
0000
0100
0000
0000
0000
0000
0000
0100
0000
0000
,
0130
0000
0020
0000
0132
1000
0010
0100
,
0010
0100
1010
1000
0100
0010
1010
0100
,
1010
0100
1023
0231
2310
0001
0100
0010
,
0001
0010
0110
0100
3012
0100
1010
1000
,
1010
0100
0010
0100
1123
1000
0001
0100
,
1000
0001
1100
0100
1000
0100
1100
0001
,
1100
0001
1230
0321
1132
0010
0100
1000
,
0010
0100
1010
0100
1023
0001
1100
0001
,
0100
0001
1100
1000
1132
0010
0100
1000
,
0100
0010
1010
1000
0100
1000
1010
0010
,
1010
0100
1023
0231
2310
0001
0010
0100
,
0010
0100
0010
0100
3012
0100
1000
0100
,
1000
0010
1000
0100
1023
0001
0100
1000
,
0001
1000
0231
1320
0132
0010
0100
1000
,
0100
1000
0123
0001
1032
0123
0231
1000
,
0010
0001
1000
0001
0010
0000
0000
0000
,
0000
0000
0000
0300
2002
0000
0000
0000
,
3200
0000
0000
0000
0300
0000
0023
0230
2320
0000
0000
0000
0000
0000
0000
0000
,
3002
0000
0000
0000
0000
0000
0000
0030
0223
0000
0000
0000
0000
0000
2300
3002
,
0203
0000
0000
0000
0000
0300
0230
0320
2032
0000
0000
0000
0000
0000
0000
0000
,
0023
0000
0000
0000
3200
0000
0000
0000
2332
0000
0000
0000
0000
0000
3020
0230
,
2300
0000
0000
0000
0000
3000
0023
0230
2320
0000
0000
0000
0000
0000
0000
0000
,
3002
0000
0000
0000
0230
0000
0000
0000
2323
0000
0000
0000
0000
0000
3032
2003
,
3020
0000
0000
0000
0000
0000
0000
0000
0000
0000
0000
0000
0230
0000
0000
0000
0320
0000
0230
0000
2301
0000
0000
0000
0001
0000
0000
0000
0001
0010
0100
0000
,
0010
0010
0000
0010
0010
0000
0000
0000
3102
0000
1000
0000
0100
0000
1000
0000
,
0100
1000
0100
1000
0100
1000
0100
1000
,
0100
1000
0123
0230
2301
0010
0100
0010
,
0100
0010
0100
0010
3102
0010
1000
0010
,
1000
0010
1000
0100
1023
0100
1000
0100
,
1000
0100
1000
0100
1000
0100
1000
0100
,
1000
0100
1230
0321
0132
0010
0100
0010
,
0100
0000
0010
0000
0100
0000
0010
1000
0023
0000
0100
0000
0000
0000
0100
0000
,
0100
0000
0000
0000
1032
0100
1000
0100
,
1000
0100
1000
0100
1000
0100
1000
0100
,
0023
0000
0000
2030
3020
0230
0320
0000
0000
0230
0000
0000
2301
0000
0000
0010
0000
0000
0100
0000
0000
0010
0000
0000
,
0100
0010
0100
0010
3102
0010
1000
0010
,
1000
0010
1000
0010
1023
0100
1000
0100
,
0001
0000
1000
0000
0230
0001
0320
0000
1032
0000
0100
1000
0010
0000
0010
0000
,
0010
0010
0213
0320
2032
3003
0000
0000
;
